The Avengers 2012 720p BrRip Pimp4003 | Film İndir |Torrent Download

The Avengers 2012 720p BrRip Pimp4003






The Avengers 2012 720p BrRip Pimp4003

Size: 1.06 GB

Quality: 720p

Resolution: 1280*536

Frame Rate: 25 fps

Language: English

Run Time: 2hr 23 min

MPR: PG-13

Sample: YES

Please seed and comment!!!
MY COMPUTER IS RUNNING NON STOP TO PROVIDE THESE MOVIES SO A SIMPLE THANKS WOULD BE ENOUGH.ITS REALLY SAD THAT MANY DOWNLOAD BUT DONT EVEN RATE OR COMMENT
DONT HIT AND RUN,SEED BACK.LET OTHERS ENJOY TOO AND YOU ARE GETTING THIS FOR FREE SO ATLEAST SEED BACK
DO COMMENT ON THE QUALITY,IT WONT TAKE MUCH OF YOUR TIME
CHECK OUT MY OTHER TORRENTS
Also i take requests On Facebook. Any movies you want just like and post on my facebook and i will get them up.
Enjoy!!!!!

The Hunger Games 720p BrRip Pimp4003 | Film İndir |Torrent Download

The Hunger Games 720p BrRip Pimp4003




The Hunger Games 720p BrRip Pimp4003

Size: 960 MB

Quality: 720p

Resolution: 1280*536

Frame Rate: 25 fps

Language: English

Run Time: 2hr 25 min

MPR: PG-13

Sample: YES

Please seed and comment!!!
MY COMPUTER IS RUNNING NON STOP TO PROVIDE THESE MOVIES SO A SIMPLE THANKS WOULD BE ENOUGH.ITS REALLY SAD THAT MANY DOWNLOAD BUT DONT EVEN RATE OR COMMENT
DONT HIT AND RUN,SEED BACK.LET OTHERS ENJOY TOO AND YOU ARE GETTING THIS FOR FREE SO ATLEAST SEED BACK
DO COMMENT ON THE QUALITY,IT WONT TAKE MUCH OF YOUR TIME
CHECK OUT MY OTHER TORRENTS
Also i take requests On Facebook. Any movies you want just like and post on my facebook and i will get them up.
Enjoy!!!!!

The Four 2012 DVDRip XviD CoWRY | Film İndir |Torrent Download

The Four 2012 DVDRip XviD CoWRY


Suppier…..: Team CoWRY Ripper…….: Team CoWRY
Release Date: 08/26/2012 DVD Date…..: 08/31/2012
Video Codec.: XviD Video Bitrate: 1251Kbps
Resolution..: 640 x 272 Aspect Ratio.: 2.353:1
Audio Codec.: AC3 Audio Bitrate: 384 Kbps
Language….: Mandarin Subtitle…..: Eng Cht Chs
Runtime…..: 118 Min Frame Rate…: 23.976
Source……: DVD9 R3 Grenre…….: Action
File Size…: 2CD 700MB x 2 Rar Size…..: 100x15MB
Director : Gordon Chan , Janet Chun
Actor : Ronald Cheng
Collin Chou
Chao Deng
iMDB Rating : 6.1/10 (87 votes)
iMDB Link : http://www.imdb.com/title/tt2204340/
ScreenS:

Hell (2011) NTSC DVDR DD5.1 Eng NL Subs | Film İndir |Torrent Download

Hell (2011) NTSC DVDR DD5.1 Eng NL Subs

Hell (2011) NTSC DVDR DD5.1 Eng NL Subs
.

.
R 89 min – Horror | Sci-Fi | Thriller – 22 September 2011 (Germany)
.

http://www.imdb.com/title/tt1643222/

.

http://www.moviemeter.nl/film/68605/

.
NL Vertaling: QoQ-TEAM
.
Source: kart3l-hell
Video: NTSC
Audio: English, German DD5.1
Subtitles: English, English SDH, Dutch
Menu: Yes
.
Enjoy

A Letter to Elia 2010 DVDRip XviD-EXViD | Film İndir |Torrent Download

A Letter to Elia 2010 DVDRip XviD-EXViD

A.Letter.to.Elia.2010.DVDRip.XviD-EXViD

EXViD aims to iNTERNAL those releases which have been lost in the archives
EXViD aims to PRE non-internal releases which have poor sources and are likely skipped by others

http://www.imdb.com/title/tt0808245

Subtitles: EN, ES, FR
Date: 2012.08

Directors: Martin Scorsese, Kent Jones

Genre: Documentary

Plot
Martin Scorsese directs and narrates this look at director Elia Kazan. From his triumphs with
films such as On the Waterfront to his controversial naming of names during the HUAC hearings,
Kazan is shown in all his complexity

Cast
Martin Scorsese …Himself – Narrator
Elia Kazan …Himself (archive footage

Stats
Format : AVI
Format/Info : Audio Video Interleave
File size : 701 MiB
Duration : 1h 0mn
Overall bit rate : 1 630 Kbps
Writing application : Nandub v1.0rc2
Writing library : Nandub build 1852/release

Video
ID : 0
Format : MPEG-4 Visual
Format profile : Advanced SimpleL5
Format settings, BVOP : 1
Format settings, QPel : No
Format settings, GMC : No warppoints
Format settings, Matrix : Default (H.263
Codec ID : XVID
Codec ID/Hint : XviD
Duration : 1h 0mn
Bit rate : 1 499 Kbps
Width : 624 pixels
Height : 352 pixels
Display aspect ratio : 16:9
Frame rate : 23.976 fps
Color space : YUV
Chroma subsampling : 4:2:0
Bit depth : 8 bits
Scan type : Progressive
Compression mode : Lossy
Bits/(PixelFrame) : 0.285
Stream size : 644 MiB (92
Writing library : XviD 64

Audio
ID : 1
Format : MPEG Audio
Format version : Version 1
Format profile : Layer 3
Mode : Joint stereo
Mode extension : MS Stereo
Codec ID : 55
Codec ID/Hint : MP3
Duration : 1h 0mn
Bit rate mode : Variable
Bit rate : 118 Kbps
Nominal bit rate : 128 Kbps
Channel(s) : 2 channels
Sampling rate : 48.0 KHz
Compression mode : Lossy
Stream size : 50.6 MiB (7
Alignment : Aligned on interleaves
Interleave, duration : 24 ms (0.58 video frame
Interleave, preload duration : 150 ms
Writing library : LAME3.98r
Encoding settings : -m j -V 4 -q 3 -lowpass 17 –abr 128

The Expendables 2 (2012) TS Pimp4003 | Film İndir |Torrent Download

The Expendables 2 (2012) TS Pimp4003





The Expendables 2 (2012) TS Pimp4003

Size: 801 MB

Quality: TS Rip

Resolution: 720*272

Frame Rate: 25 fps

Language: English

Run Time: 1hr 31 min

Sample: YES

Please seed and comment!!!
MY COMPUTER IS RUNNING NON STOP TO PROVIDE THESE MOVIES SO A SIMPLE THANKS WOULD BE ENOUGH.ITS REALLY SAD THAT MANY DOWNLOAD BUT DONT EVEN RATE OR COMMENT
DONT HIT AND RUN,SEED BACK.LET OTHERS ENJOY TOO AND YOU ARE GETTING THIS FOR FREE SO ATLEAST SEED BACK
DO COMMENT ON THE QUALITY,IT WONT TAKE MUCH OF YOUR TIME
CHECK OUT MY OTHER TORRENTS
Also i take requests On Facebook. Any movies you want just like and post on my facebook and i will get them up.
Enjoy!!!!!

Repo Men 2010 Theatrical Cut DVDRip XviD-EXViD | Film İndir |Torrent Download

Repo Men 2010 Theatrical Cut DVDRip XviD-EXViD

EXViD aims to iNTERNAL those releases which have been lost in the archives
EXViD aims to PRE non-internal releases which have poor sources and are likely skipped by others

http://www.imdb.com/title/tt1053424

Subtitles: EN, ES, FR
Date: 2012.08

Director: Miguel Sapochnik

Genres: Action Crime Drama Sci-Fi Thriller

Plot
Set in the near future when artificial organs can be bought on credit, it revolves around a
man who struggles to make the payments on a heart he has purchased. He must therefore go on
the run before said ticker is repossessed

Cast
Jude Law …Remy
Forest Whitaker …Jake
Alice Braga …Beth
Liev Schreiber …Frank
Carice van Houten …Carol
Chandler Canterbury …Peter
Joe Pingue …Ray
Liza Lapira …Alva
Tiffany Espensen …Little Alva
Yvette Nicole Brown …Rhodesia
RZA …T-Bone
Wayne Ward …John
Tanya Clarke …Hooker
Max Turnbull …Larry the Lung
Howard Hoover …Salesman

Stats
Format : AVI
Format/Info : Audio Video Interleave
File size : 700 MiB
Duration : 1h 51mn
Overall bit rate : 880 Kbps
Writing application : Nandub v1.0rc2
Writing library : Nandub build 1852/release

Video
ID : 0
Format : MPEG-4 Visual
Format profile : Advanced SimpleL5
Format settings, BVOP : 2
Format settings, QPel : No
Format settings, GMC : No warppoints
Format settings, Matrix : Default (H.263
Codec ID : XVID
Codec ID/Hint : XviD
Duration : 1h 51mn
Bit rate : 746 Kbps
Width : 640 pixels
Height : 272 pixels
Display aspect ratio : 2.35:1
Frame rate : 23.976 fps
Color space : YUV
Chroma subsampling : 4:2:0
Bit depth : 8 bits
Scan type : Progressive
Compression mode : Lossy
Bits/(PixelFrame) : 0.179
Stream size : 594 MiB (85
Writing library : XviD 64

Audio
ID : 1
Format : MPEG Audio
Format version : Version 1
Format profile : Layer 3
Mode : Joint stereo
Codec ID : 55
Codec ID/Hint : MP3
Duration : 1h 51mn
Bit rate mode : Variable
Bit rate : 121 Kbps
Nominal bit rate : 128 Kbps
Channel(s) : 2 channels
Sampling rate : 48.0 KHz
Compression mode : Lossy
Stream size : 96.6 MiB (14
Alignment : Aligned on interleaves
Interleave, duration : 24 ms (0.58 video frame
Interleave, preload duration : 145 ms
Writing library : LAME3.98r
Encoding settings : -m j -V 4 -q 3 -lowpass 17 –abr 128

Release notes
ALLiANCE did the UNRATED, this is the THEATRiCAL cut